Форум Блог Новости Путеводитель   Реклaма

Искусство и культура › Индийская музыка в современной обработке

4adima м
Карма 57
Ответить
14.08.2011
kudryashkka
Только не разобралась с альбомом Call Of The Mystic - поему-то в треклисте несколько композиций, а скачивает 1. Я что-то не так делаю или это так на рутрекере выложено ?

Этот альбом скопирован не по-треково (Tracks Rip), а одной копией всей пластинки - Image Rip - Полный Образ CD, он существует для того, чтобы при прослушивании или записи на CD восстановить CD в том виде, в каком он существует изначально. Для того, чтобы слушать или записывать эту Image-Rip-копию по-треково, нужно воспользоваться .cue-файлом, который в таких раздачах должен обязательно присутствовать вместе с FLAC(или APE)-Image-файлом. Для того, что слушать, например через проигрыватель Foobar, нужно открыть в нем (через него, как вам угодно) этот .cue-файл. Для того чтобы записать альбом на CD, например я пользуюсь рекордером CDBurnerXP, нужно поместить в окно для записи не один трек (FLAC(или APE)-Image-файл), а .cue-файл. И все! Правда есть еще один ньюанс с .cue-файлами. Заключается он в том, что при копировании дисков и создании .cue-файлов, эти .cue иногда получаются не правильными и требуют редактирования (это бывает редко). Если программа (для прослушивания или записи) не открывает .cue-файл нужно узнать не требует ли он редактирования. Для этого есть программа Notepad++, которая может читать и редактировать .cue. К примеру открытый .cue-файл для Bahramji & Maneesh de Moor - Call of the Mystic выглядит вот так:

REM GENRE Ethnic

REM DATE 2004

REM DISCID 580BCA07

REM COMMENT "ExactAudioCopy v0.99pb4"

PERFORMER "Bahramji & Maneesh de Moor"

TITLE "Call Of The Mystic"

FILE "Bahramji & Maneesh de Moor - Call Of The Mystic.flac" WAVE

TRACK 01 AUDIO

TITLE "Crazy Heart"

PERFORMER "Bahramji & Maneesh de Moor"

INDEX 01 00:00:00

TRACK 02 AUDIO

TITLE "Watch The Cat"

PERFORMER "Bahramji & Maneesh de Moor"

INDEX 01 07:10:34

TRACK 03 AUDIO

TITLE "La Illaha (feat. Sudha)"

PERFORMER "Bahramji & Maneesh de Moor"

INDEX 01 16:32:34

TRACK 04 AUDIO

TITLE "Moment With You"

PERFORMER "Bahramji & Maneesh de Moor"

INDEX 01 23:42:07

TRACK 05 AUDIO

TITLE "Dreamcatcher"

PERFORMER "Bahramji & Maneesh de Moor"

INDEX 01 30:05:64

TRACK 06 AUDIO

TITLE "Harambol Connection"

PERFORMER "Bahramji & Maneesh de Moor"

INDEX 01 37:48:26

TRACK 07 AUDIO

TITLE "Return Of The Nightingale"

PERFORMER "Bahramji & Maneesh de Moor"

INDEX 01 39:15:51

...не помню редактировал я его или нет, но он правильный и работает. Ошибки бывают в строке, которую я специально выделил - FILE "Bahramji & Maneesh de Moor - Call Of The Mystic.flac" WAVE. С ошибкой он может выглядеть вот так - FILE "Bahramji & Maneesh de Moor - Call Of The Mystic.wav" WAVE. Если копия сделана в FLAC - подставляем - .flac, если в APE - подставляем - .ape. Через программу Notepad++ это очень легко исправить. Если и даже после такого исправления .cue-файл не работает, то нужно проверить его содержание на наличие постороннего алфавита. Все записи в .cue-файле должны быть сделаны Латинским алфавитом. Удачи! Если кто-то не хочет себя грузить .cue-файлами и подобными вещами, качайте МР3, там все гораздо проще, но МР3 качество всё-же послабее будет чем FLAC или APE.

Кстати, посмотрел, на http://rutracker.org есть Bahramji & Maneesh De Moor - Call Of The Mystic - MP3, 320 kbps и Bahramji & Mashti - Sufi Safir - MP3, 128 kbps.
Карма 68
Ответить
14.08.2011
ууууууу... скока букффф :)))

Буду слушать оптом, то есть все сразу :) ибо я пользуюсь стандартным windows media плеером. Максимум, на что у меня хватило интеллекта - это преобразовать flac и мр3. На это мой мозг выключился :)

кстати, вопрос про flac - эти файлы читаются, например, обычным DVD ? а то качество-то при преобразовании в мр3 ооооочень пострадало.

Да, вот выкладываю вещь, которую искала (в смысле мощную, сильную, для выплеска агрессии)

http://narod.yandex.ru/disk/18774534001/Бег%20Силы%20.wav
4adima м
Карма 57
Ответить
14.08.2011
kudryashkka
кстати, вопрос про flac - эти файлы читаются, например, обычным DVD ?

Не встречал ни DVD, ни CD проигрывателей читающих FLAC или APE форматы
Карма 0
Ответить
18.08.2011
Скидываю из личного архива свеженькую поп музыку 2011года, думаю придётся по вкусу как и мне, если понравится буду закидывать ещё.

http://depositfiles.com/files/g6zhgqhnk
Карма 11
Ответить
7.11.2011
Engine-EarZ Experiment - Кали-юга (дапстеп)

Карма 515
Ответить
7.06.2012
Буду очень признательна, если кто-нибудь сможет сказать кто исполняет эту Дурга-гаятри!!!
 Скачать: Фото 1
niil м
Карма 493
Ответить
28.09.2012
подскажите плиз , что за песню дед поёт , крутят на 46 минуте .. хочу mp3 %-)

Карма 736
Ответить
28.09.2012
niil

Sheela Ki Jawani из фильма Tees Maar Khan. Хорошо дед прикалывается ))))

мп-3, надеюсь, найдешь? )))

(только этого вина или чего у них там совсем не хочется ))))))))))) )

niil м
Карма 493
Ответить
28.09.2012
Prem
мп-3, надеюсь, найдешь? )))

надеюсь :) спасибо

Prem
только этого вина или чего у них там совсем не хочется ))))

да , тут сам плод хочется кушать и кушать , так аппетитно :)
Карма 736
Ответить
28.09.2012
niil

плод аппетитный, слов нет, вино может тоже впечатляло бы, если бы они его не ногами мяли))

а трек найти будет легче по названию фильма

или пиши лс, дам ссылку (тут теперь нельзя)
Помощь сайту
Войди или зарeгиcтpируйся, чтобы писать
Случайные топики